Обзор веб-камеры Imilab CMSXJ22A с разрешением видео 1080P

Пост опубликован в блогах iXBT.com, его автор не имеет отношения к редакции iXBT.com
| Обзор | Видеокамеры, экшн-камеры и все для них

Сегодняшний короткий пост посвящен бюджетной веб-камере от IMILAB. Модель CMSXJ22A имеет разрешение видео 1080P и встроенный микрофон. Конструкция позволяет ставить ее на штатив или вешать на монитор сверху. 

Технические характеристики 

  • Производитель: Imilab
  • Модель: CMSXJ22A
  • Цвет: черный
  • Размеры: 71,5 × 35 × 120 мм
  • Вес: 138 г
  • Источник питания: USB 2.0 порт, 5 В 
  • Объектив: 3,6 мм  f/2.0
  • Разрешение: 1080P 2MP
  • Угол обзора: 96°
  • Частота кадров видео: 30 кадров в секунду
  • Формат кодирования аудио: PCM
  • Формат кодирования: MJPEG
  • Способ установки: установка на телевизор/Штатив/ТВ шкаф/стол

Упаковка и комплектация

Быстрая курьерская доставка по РФ. Есть вариант комплектации с небольшим штативом. У меня как раз такой. Камера упакована в небольшую картонную коробку.

Изготовлено устройство в Китае. Гарантия 12 мес.

Комплект поставки изделия:

  • Imilab CMSXJ22A
  • Мультиязычное руководство пользователя (русский язык в наличии)
  • Складной штатив

Штатив пластиковый, устойчивый благодаря резиновым вставкам на ножках, высотой почти 5 см.

Внешний вид 

Основной корпус с объективом имеет размеры 70х30х28 мм. Вокруг объектива яркий серебристый ободок, он немного оживляет дизайн устройства.  Фокус никак не настраивается, может быть, это даже удобнее. Кабель несъемный, 1,7 м длиной. По нему передаются все данные. Ферритового фильтра электромагнитных помех около разъема usb нет.

Кронштейн для установки представляет собой две пластинки с резиновыми вставками связанные осью. В нижней пластинке втулка с резьбой под штатив.

Установка

Камера допускает два варианта установки камеры: на штатив и на монитор.

На комплектном штативе (можно использовать любой свой с резьбой 1/4"). Доступна регулировка вверх-вниз в широких пределах. На самом деле, она стоит на кронштейне и без штатива, но не так устойчиво.

На мониторе камера крепится благодаря встроенному кронштейну, держится неплохо. Но пружины в лапке кронштейна нет, держится за счет силы трения.

Использование

При подключении к компьютеру с ОС Windows 10 драйвера не понадобились, камера сразу готова к работе. С современным телевизором так же работает принцип Plug&Play.

На передней панели, по бокам объектива пара светодиодных индикатора: справа красный индикатор питания, слева — индикатор активный при работе.

Потребляет камера от порта usb совсем немного, до 0,1 А:

Онлайн сервис для теста веб камер показывают такие параметры у CMSXJ22A — разрешение 1920х1080:

В программе skype качество картинки весьма достойное, доступны такие настройки:

Протестируем, что у нас по фокусу и резкости изображения, посмотрим камерой с разных расстояний на стандартные тестовые таблицы для оптики. Оптимальная резкость получается в районе 1 м и далее.

В стандартном приложении «Камера» win10 доступны следующие параметры фото и видео для камеры. И пример фото в реальном размере. В темноте шумов ощутимо больше. Особых искажений формы нет, можно использовать в большом помещении.

Запись видео со звуком:

Параметры файла

Формат: MPEG-4
Профиль формата: Base Media / Version 2
Идентификатор кодека: mp42 (mp41/isom)
Размер файла: 64,1 Мбайт
Продолжительность: 29 с. 576 мс.
Режим общего битрейта: Постоянный
Общий поток: 18,2 Мбит/сек
Видео
Идентификатор: 1
Формат: AVC
Формат/Информация: Advanced Video Codec
Профиль формата: Main@L4
Настройки формата: CABAC / 1 Ref Frames
Параметр CABAC формата: Да
Параметр RefFrames формата: 1 кадр
Параметр GOP формата: M=1, N=30
Идентификатор кодека: avc1
Идентификатор кодека/Информация: Advanced Video Coding
Продолжительность: 29 с. 569 мс.
Вид битрейта: Постоянный
Битрейт: 17,8 Мбит/сек
Ширина: 1 920 пикселей
Высота: 1 080 пикселей
Соотношение сторон: 16:9
Режим частоты кадров: Переменный
Частота кадров: 30,000 кадров/сек
Минимальная частота кадров: 20,633 кадров/сек
Максимальная частота кадров: 31,949 кадра/сек
Стандарт вещания: Component
Цветовое пространство: YUV
Субдискретизация насыщенности: 4:2:0
Битовая глубина: 8 бит
Тип развёртки: Прогрессивная
Бит/(Пиксели*Кадры): 0.286
Размер потока: 63,5 Мбайт (99%)
Цветовой диапазон: Full
Codec configuration box: avcC

Аудио
Идентификатор: 2
Формат: AAC LC
Формат/Информация: Advanced Audio Codec Low Complexity
Идентификатор кодека: mp4a-40-2
Продолжительность: 29 с. 576 мс.
Продолжительность оригинала: 29 с. 547 мс.
Вид битрейта: Постоянный
Битрейт: 173 Кбит/сек
Номинальный битрейт: 192 Кбит/сек
Каналы: 2 канала
Channel layout: L R
Частота: 48,0 КГц
Частота кадров: 46,875 кадров/сек (1024 SPF)
Метод сжатия: С потерями
Размер потока: 624 Кбайт (1%)
Размер потока оригинала: 624 Кбайт (1%)
mdhd_Duration: 29576

Заключение

Фирма Imilab, известная по камерам видеонаблюдения, выпускает и неплохие веб-камеры для видео связи и онлайн конференций. Модель CMSXJ22A за свою небольшую цену вполне неплоха для общения по видеосвязи.

В конце обзора традиционно перечислим плюсы и минусы рассмотренного товара.

Плюсы:

  • Два вида крепления
  • Длинный кабель
  • Честное разрешение
  • Низкая цена

Минусы:

  • Нет подсветки
  • Нет ЭМП фильтра на кабеле
  • Глухой микрофон

Купить тут Для этого лота есть быстрая доставка из РФ, и купон AKHJUDWEB на — US $10.00.

Спасибо за внимание. Удачных покупок!

Автор не входит в состав редакции iXBT.com (подробнее »)
Об авторе
Для связи bdos@rambler.ru

3 комментария

15693779@vkontakte
C такой можно и на чат-рулетку зайти)
bdos
для скайпа и удаленных совещаний же
V
Являюсь обладателем подобной — греется, плохо работает с балансом белого (то желтит, то странно искажает цвета), слишком широкий угол обзора. Но вцелом свои деньги отрабатывает.

Добавить комментарий