Обзор камеры Xiaomi MiJia 1080p

 

Камера покупалась в румиком (цена на момент покупки 12.05.2018 — 2790 р).

 

Глосарий


 


ВТ – Bluetooth

ПВУ – правый верхний угол

 

Назначение


 


Камера предназначена для построения простых децентрализованных систем видеонаблюдения помещений. Встроенный динамик позволяет использовать камеру в качестве видеодомофона/видеоняни. В связке с другими устройствами Xiaomi для умного дома появляются дополнительные возможности.

Технические характеристики

 

Параметр

Значение

Тип матрицы

матрица с обратной засветкой

Разрешение матрицы

4 Мп

Разрешение видео

1920 × 1080

Угол зрения объектива

130 град.

Диафрагма

f/2.0

Частота кадров

20 кадр/с в дневном режиме

15 кадр/с в ночном режиме

Режимы записи видео

цикличный, по расписанию и по детектору движения

ИК-подсветка

есть

Количество светодиодов

8 шт.

Дальность подсветки

10 м

Обнаружение движения

до 15 м

Программная обработка

широкий динамический диапазон (WDR)

Тип карт памяти (емкость)

MicroSD (до 64 Гб)

Микрофон

есть

Динамик

есть

Максимальная потребляемая мощность

2 Вт

Wi-Fi

802.11 b/g/n 2,4 и 5 ГГц

ВТ

есть

Элементы управления

скрытая кнопка reset

Диапазон рабочих температур

0 – 40 °С

Питание

комплектный блок питания 5 В 2 А

Разъем питания

microUSB A

Масса

128 г

Габаритные размеры

114,3 х 80,2 х 80,2 мм

Введение

Xiaomi MiJia 1080p используется только в связке с приложением MiHome и сервисами Xiaomi. Из коробки нет: Web-интерфейса, RTSP, совместимости со сторонними облачными видеосервисами.

Конструкция

Камера состоит из двух узлов – модуль камеры с электроникой и кронштейн-подставка. Модуль камеры в кронштейне крепится с помощью разъемного соединения, по типу байонета в цифровых зеркалках. Для разъединения надо повернуть модуль против часовой стрелки.

На лицевой поверхности модуля камеры расположена камера. На боковой цилиндрической поверхности располагаются: разъем для карты памяти, разъем microUSB, микрофон и отверстие за которым прячется кнопка reset.

Так как камера рассчитана на применение внутри помещений, то, судя по внешнему осмотру, защиты от попадания воды не предусмотрено.

При любых положениях подвижной части относительно основания, камера сохраняет равновесие. Это обеспечивается большим весом основания относительно остальных деталей.

Цилиндрический шарнир позволяет отклонять кронштейн относительно основания на 90 градусов вперед и столько же назад. Других степеней свободы нет.

Основание не магнитное. Пробовал подносить к отопительной батарее – не прихватилось.

Включение и работа

После подачи питания на камере светится оранжевый светодиод. Далее, секунд через 10, раздается пара щелчков и камера начинает мигать синим светодиодом. Это означает, что можно подключать к приложению.

Подключение к MiHome


Запускаем MiHome, нажимаем «+» в ПВУ главного экрана. На странице добавления нового устройства будет ожидать камера.

Нажимаем на нее и следуем инструкциям. Делаем сброс скрепкой, вводим название и пароль вайфай сети. Сгенерированный код показываем камере. Нужно подносить примерно на 3 – 5 см к объективу, чтоб камера его смогла прочитать. После писка, начнется процесс подключения. Все действия камера проговаривает на китайском.

Через некоторое время в центре сообщений появляется значок – это уведомления о новой версии прошивки.

Обновляемся.

Процесс не быстрый, занимает две – три минуты.

После прошивки появляется новый режим – BLE шлюз.

Режим BLEшлюза

Попробуем привязать термогигрометр с длинным названием

После обновления прошивки, режим включается и камера автоматически ищет совместимые устройства. Действий со стороны пользователя не требуется.

 

Датчик подхватился и стал доступен через интернет. Начали рисоваться графики изменения температуры и влажности во времени. Начали приходить уведомления с датчика.

Можно ставить точку и двигать ее по графику, просматривая значения.

 

В течение дня показания на сервер отправляются примерно раз в час. Никаких настроек для этого периода нет.

 

После накопления данных, становится доступна статистика за неделю и месяц. Но иногда приложение делает вид, что ничего за неделю/месяц нет.

Подключение к ПК

 Если камеру подключить к компьютеру то ничего не происходит. Камера просто запитывается от USB порта.

Запись видео: без карты памяти

 Длина — 13…15 сек. Наверное, у камеры есть небольшой объем встроенной памяти. Или видео пишется на сервер, оттуда попадает на смартфон.

Параметры видео:

 

Спойлер

Format                     : AVC

Format/Info                : Advanced Video Codec

Format profile             : High@L3

Format settings            : CABAC / 1 Ref Frames

Format settings, CABAC     : Yes

Format settings, ReFrames  : 1 frame

Format settings, GOP       : M=1, N=60

Codec ID                   : avc1

Codec ID/Info              : Advanced Video Coding

Duration                   : 12 s 200 ms

Bit rate                   : 175 kb/s

Width                      : 640 pixels

Height                      : 360 pixels

Display aspect ratio       : 16:9

Frame rate mode            : Constant

Frame rate                 : 20.000 FPS

Color space                : YUV

Chroma subsampling         : 4:2:0

Bit depth                  : 8 bits

Scan type                   : Progressive

Bits/(Pixel*Frame)         : 0.038

Stream size                : 261 KiB (91%)

 

Audio

ID                         : 1

Format                     : AAC

Format/Info                : Advanced Audio Codec

Format profile              : LC

Codec ID                   : mp4a-40-2

Duration                   : 12 s 288 ms

Bit rate mode              : Variable

Bit rate                   : 15.6 kb/s

Maximum bit rate           : 17.4 kb/s

Channel(s)                 : 1 channel

Channel positions          : Front: C

Sampling rate              : 8 000 Hz

Frame rate                 : 7.813 FPS (1024 SPF)

Compression mode           : Lossy

Stream size                : 23.4 KiB (8%)

Language                   : English


 

Запись видео: с картой памяти

 При работе с картой памяти доступны «верхний» уровень – управление (форматирование, извлечение, статистика) и «нижний» – работа с файлами (просмотр, удаление, скачивание).

Меню организовано логично, по нажатию на «…» в ПВУ раскрывается список с пунктами настроек.

При работе камера заметно греется. В форумах есть сообщения об отказавших картах памяти. Пока понаблюдаю, поставил карту Sony 10 класса на 16 Гб. Режим записи – по детектору.

При вставленной карте памяти становится доступной запись на NAS. Насколько понял, подразумевается запись в любую доступную сетевую папку. Пока настроить запись на NAS не удалось. Надо разбираться с правами доступа.

Параметры видео:

 

Спойлер

Format                      : MPEG-4

Format profile             : Base Media / Version 2

Codec ID                   : mp42 (mp42/isom)

File size                  : 5.60 MiB

Duration                   : 1 min 1 s

Overall bit rate           : 762 kb/s

Encoded date                : UTC 2018-05-14 13:05:48

Tagged date                : UTC 2018-05-14 13:06:48

 

Video

ID                         : 2

Format                     : AVC

Format/Info                : Advanced Video Codec

Format profile             : High@L4

Format settings            : CABAC / 1 Ref Frames

Format settings, CABAC     : Yes

Format settings, ReFrames  : 1 frame

Format settings, GOP       : M=1, N=60

Codec ID                   : avc1

Codec ID/Info              : Advanced Video Coding

Duration                    : 1 min 1 s

Bit rate                   : 698 kb/s

Width                      : 1 920 pixels

Height                     : 1 080 pixels

Display aspect ratio       : 16:9

Frame rate mode            : Constant

Frame rate                 : 20.000 FPS

Color space                : YUV

Chroma subsampling         : 4:2:0

Bit depth                  : 8 bits

Scan type                  : Progressive

Bits/(Pixel*Frame)         : 0.017

Stream size                : 5.13 MiB (91%)

Encoded date                : UTC 2018-05-14 13:05:48

Tagged date                : UTC 2018-05-14 13:06:48

 

Audio

ID                         : 1

Format                     : ADPCM

Format profile             : A-Law

Codec ID                   : alaw

Duration                    : 1 min 1 s

Bit rate mode              : Constant

Bit rate                   : 64.0 kb/s

Channel(s)                 : 1 channel

Sampling rate              : 8 000 Hz

Bit depth                  : 16 bits

Stream size                : 482 KiB (8%)

Encoded date               : UTC 2018-05-14 13:05:48

Tagged date                : UTC 2018-05-14 13:06:48


 

Ночной режим

 Я особо к нему не приглядывался. В условиях комнаты примерно в 11 кв. м, мощности подсветки хватало.

Качество видео

Битрейт маленький – очень много артефактов и о «качестве» картинки смысла говорить нет. Зато 1 минута видео занимает 5 Мб. Настроек параметров записываемого видео нет. При записи по движению, 16 Гб хватит очень надолго. Вот проживет ли карта столько – не ясно. Так как нагрев камеры даже в спящем режиме заметный.

Настройка детектора движения

 Меню настройки зон детектора движения представляет собой окно с видом от камеры, которое разделено на 32 зоны. Чувствительность каждой зоны настраивается циклически.

Визуально различие степени чувствительности зон сделано цветом.

Качество срабатывания детектора движения меня устроило.

 

Режим «домофона»

При удерживании кнопки с изображением микрофона, звук с микрофона смартфона передается на динамик камеры. Величина задержки передачи голоса будет зависеть от текущего подключения.

Просмотр видео

Доступен поток с камеры и запуск видеофайлов. При просмотре через сотовый интернет приложение выводит предупреждение, чтоб пользователь помнил об оплачиваемом трафике.

В целом претензий к функционалу нет, все зависит от текущей сетевой обстановки (иногда не удается просмотреть из за «плохого» сотового интернета).

Все видео поделено на группы: по движению, с карты памяти и короткие видео.

Видео на карте памяти отсортировано по дате и размещено в «календарном» виде.

Режим сна

Если камеру перевести в режим сна, то она перестанет транслировать и записывать видео. Режим шлюза будет активен.

 

 

Недостатки

При такой цене особых недостатков нет, но некоторые обозреватели сетуют на отсутствие режима детекции звука. То есть запись должна включаться при превышении звуком некоторого порога. Может быть, увидим в будущих прошивках?

Еще время детекции в MiHome и время на оверлее видео показываются для разных часовых поясов. Этот факт вызывает путаницу.

UPD (13/06/2018) Примерно раз в месяц камера «пропадает» из сети. Лечится перезапуском по питанию.

 Полезные ссылки

How to Un-Brick Mi Home Smart Camera (на анлгийском)

Обсуждение на 4pda

0 0 6336 5
Автор i.go Рейтинг -0.79 Сила 0.10
Блог Блог им. i.go 0 2 RSS

5 комментариев

111476259880358883186@google
При такой цене особых недостатков нет, но некоторые обозреватели сетуют на отсутствие режима детекции звука.
Только вот в статье ни слова о её цене не сказано. Если уж заикаетесь о цене, то указывайте хотя бы приблизительную цену, чтобы не рыться в инете.
i.go
Цена — величина переменная во времени. Поэтому статья начинается с ссылки на страницу магазина, где указана актуальная цена.
100205880066803724425@google
Прошивка 3.4.6._0054 но BLE шлюза нет. MiHome тоже говорит «у вас нет BLE устройств»… Обидно, что делать не пойму
113993381113216178497@google
В описании заявлено, что камера поддерживает Bluetooth, но как подключить камеру к смартфону по bluetooth непонятно. При добавлении устройства приложение Mi Home видит камеру, но далее просит указать Wi-Fi шлюз.
В разделе же BLE приложение камеру не видит.
Кто-нибудь сталкивался с подключением камеры по Bluetooth?
i.go
С помощью Bluetooth реализуется дополнительный функционал:
— отслеживание пользователя по браслету Mi Band
— работа в режиме BLE gateway для устройств умного дома Xiaomi с Bluetooth
Подключить камеру к смартфону по Bluetooth нельзя. По крайней мере, я не видел об этом информации.

Добавить комментарий